<?xml version="1.0" standalone="no"?>
<!DOCTYPE svg PUBLIC "-//W3C//DTD SVG 1.1//EN" "http://www.w3.org/Graphics/SVG/1.1/DTD/svg11.dtd">
<svg xmlns="http://www.w3.org/2000/svg">
<defs >
<font id="Raleway" horiz-adv-x="496" ><font-face
    font-family="Raleway Black"
    units-per-em="1000"
    panose-1="2 11 10 3 3 1 1 6 0 3"
    ascent="940"
    descent="-234"
    alphabetic="0" />
<glyph unicode=" " glyph-name="space" horiz-adv-x="225" />
<glyph unicode="!" glyph-name="exclam" horiz-adv-x="362" d="M86 300V717H276V300H86ZM86 0V184H276V0H86Z" />
<glyph unicode="&quot;" glyph-name="quotedbl" horiz-adv-x="476" d="M53 496V730H213V496H53ZM263 496V730H423V496H263Z" />
<glyph unicode="#" glyph-name="numbersign" horiz-adv-x="757" d="M721 397H562L542 310H670V170H508L467 0H316L358 170H298L257 0H106L148 170H36V310H182L202 397H87V527H234L279 710H430L384 527H444L489 710H640L594 527H721V397ZM392 310L412 397H352L332
310H392Z" />
<glyph unicode="$" glyph-name="dollar" horiz-adv-x="649" d="M510 478Q488 492 462 504Q440 515 413 524T357 539V449Q366 447 376 444T397 437Q446 422 485 404T553 362T596 302T611 217Q611 158 591 117T537 49T460 9T371 -8V-129H291V-6Q222 0 154 21T32
74L116 245Q143 228 174 213Q200 200 234 188T305 170V258Q274 266 243 277Q196 293 162 311T106 353T74 407T63 476Q63 530 81 571T130 643T202 691T291 714V815H371V713Q404 709 435 701T494 683T548 661T594 639L510 478ZM401 198Q401 212 389 222T357 241V167Q381
169 391 177T401 198ZM265 508Q265 493 275 484T305 466V542Q265 537 265 508Z" />
<glyph unicode="%" glyph-name="percent" horiz-adv-x="851" d="M211 404Q173 404 141 416T84 450T47 500T33 562Q33 595 46 624T84 674T140 707T211 720Q248 720 280 708T337 674T375 624T389 562Q389 529 375 500T337 450T281 417T211 404ZM211 494Q231 494
245 514T259 562Q259 590 245 610T211 630Q191 630 177 610T163 562Q163 534 177 514T211 494ZM640 -10Q602 -10 570 2T513 36T476 86T462 148Q462 181 475 210T513 260T569 293T640 306Q677 306 709 294T766 260T804 210T818 148Q818 115 804 86T766 36T710 3T640
-10ZM640 80Q660 80 674 100T688 148Q688 176 674 196T640 216Q620 216 606 196T592 148Q592 120 606 100T640 80ZM117 65L400 384L651 721L734 646L463 337L200 -10L117 65Z" />
<glyph unicode="&amp;" glyph-name="ampersand" horiz-adv-x="749" d="M506 0L468 40Q425 14 379 2T285 -10Q223 -10 177 10T99 62T51 134T35 216Q35 277 64 321T135 399Q103 438 90 468T77 536Q77 579 93 613T136 671T202 706T285 719Q324 719 361 710T428 680T476
627T494 548Q494 494 469 451T402 372L484 285Q495 313 501 345T507 416H660Q659 339 642 278T596 167L755 0H506ZM305 138Q335 138 364 151L251 272Q217 244 217 216Q217 205 221 192T236 166T264 146T305 138ZM249 544Q249 531 256 522T282 495Q302 509 311 519T320
546Q320 563 311 572T285 581Q268 581 259 571T249 544Z" />
<glyph unicode="&apos;" glyph-name="quotesingle" horiz-adv-x="266" d="M53 496V730H213V496H53Z" />
<glyph unicode="(" glyph-name="parenleft" horiz-adv-x="342" d="M25 348Q25 399 37 450T70 554T119 661T181 772L326 714Q314 695 294 656T253 565T217 457T202 345Q202 263 236 179T321 1L183 -66Q152 -20 124 30T73 133T38 240T25 348Z" />
<glyph unicode=")" glyph-name="parenright" horiz-adv-x="341" d="M316 348Q316 294 303 240T268 134T218 31T158 -66L20 1Q70 95 104 179T139 345Q139 399 124 456T89 565T48 655T15 714L160 772Q193 716 221 662T271 555T304 451T316 348Z" />
<glyph unicode="*" glyph-name="asterisk" horiz-adv-x="364" d="M65 499L114 577L42 598L66 675L141 639L134 721H230L223 639L298 675L322 598L250 577L299 499L230 454L182 537L134 454L65 499Z" />
<glyph unicode="+" glyph-name="plus" horiz-adv-x="428" d="M384 430V280H299V185H129V280H44V430H129V525H299V430H384Z" />
<glyph unicode="," glyph-name="comma" horiz-adv-x="257" d="M71 -157L107 0H50V184H207V0L153 -157H71Z" />
<glyph unicode="-" glyph-name="hyphen" horiz-adv-x="413" d="M50 191V361H363V191H50Z" />
<glyph unicode="." glyph-name="period" horiz-adv-x="254" d="M50 0V184H204V0H50Z" />
<glyph unicode="/" glyph-name="slash" horiz-adv-x="777" d="M751 710L235 0H26L541 710H751Z" />
<glyph unicode="0" glyph-name="zero" horiz-adv-x="614" d="M572 293Q572 227 552 172T497 76T413 13T307 -10Q250 -10 202 12T118 75T62 171T42 293Q42 359 62 414T117 510T201 574T307 597Q364 597 412 574T496 511T552 415T572 293ZM380 293Q380 351 360 387T307
423Q273 423 253 387T232 293Q232 235 252 200T307 164Q339 164 359 199T380 293Z" />
<glyph unicode="1" glyph-name="one" horiz-adv-x="547" d="M523 170V0H60V170H202V369Q193 357 174 346T132 324T84 308T41 302V476Q55 476 80 486T130 511T175 542T202 571H396V170H523Z" />
<glyph unicode="2" glyph-name="two" horiz-adv-x="599" d="M31 0Q31 50 39 88T65 156T111 211T182 258Q236 287 267 304T315 333T335 351T340 368Q340 393 324 405T280 417Q247 417 218 400T156 345L36 486Q55 507 85 524T151 554T229 574T313 581Q428 581 487
534T547 401Q547 370 539 346T518 303T485 267T445 237Q420 220 393 205T338 170H558V0H31Z" />
<glyph unicode="3" glyph-name="three" horiz-adv-x="581" d="M408 237Q439 232 464 216T508 176T537 122T548 57Q548 10 528 -28T472 -92T382 -133T263 -147Q186 -147 127 -128T20 -67L117 71Q146 48 178 38T253 27Q304 27 327 42T351 92Q351 130 321 146T223
163H192V295H227Q275 295 304 313T333 364Q333 388 316 401T268 415Q233 415 203 398T149 345L29 486Q47 506 74 522T136 551T210 569T290 576Q345 576 391 564T469 528T519 473T537 400Q537 370 527 343T500 294T460 257T408 237Z" />
<glyph unicode="4" glyph-name="four" horiz-adv-x="586" d="M272 -127V-3H15V167L332 571H462V167H550V-3H462V-127H272ZM202 167H294V287L202 167Z" />
<glyph unicode="5" glyph-name="five" horiz-adv-x="562" d="M300 326Q352 326 395 309T469 262T518 189T536 95Q536 41 516 -4T460 -81T373 -131T261 -149Q183 -149 121 -120T24 -37L128 83Q157 52 192 35T262 17Q299 17 320 37T341 91Q341 124 322 144T272 164Q251
164 234 155T207 129H44L128 571H484V398H265L254 321Q258 322 265 323Q270 324 279 325T300 326Z" />
<glyph unicode="6" glyph-name="six" horiz-adv-x="609" d="M572 240Q572 187 552 142T496 63T412 10T306 -10Q178 -10 109 82T39 340Q39 428 58 497T115 615T205 690T325 716Q455 716 551 620L446 498Q392 552 322 552Q273 552 245 523T214 439Q252 473 322 473Q376
473 421 456T500 407T553 333T572 240ZM306 149Q323 149 338 156T365 176T384 205T391 240Q391 275 366 299T306 324Q271 324 246 300T221 240Q221 222 228 206T246 177T273 157T306 149Z" />
<glyph unicode="7" glyph-name="seven" horiz-adv-x="593" d="M301 411H30V584H600L253 -126H38L301 411Z" />
<glyph unicode="8" glyph-name="eight" horiz-adv-x="611" d="M573 221Q573 169 552 127T495 54T409 7T305 -10Q252 -10 204 6T118 54T59 129T37 227Q37 254 45 277T65 319T93 353T123 379Q94 396 76 430T57 499Q57 550 80 589T140 656T220 696T305 710Q346 710
390 697T470 657T530 592T554 501Q554 466 535 431T487 379Q502 368 517 353T545 317T565 273T573 221ZM380 232Q380 265 359 283T305 301Q272 301 251 283T230 232Q230 203 251 183T305 163Q338 163 359 183T380 232ZM250 495Q250 468 267 455T305 442Q325 442
343 455T361 495Q361 515 346 529T305 543Q280 543 265 529T250 495Z" />
<glyph unicode="9" glyph-name="nine" horiz-adv-x="589" d="M27 321Q27 373 47 419T103 498T187 551T293 571Q357 571 406 548T490 479T542 369T560 221Q560 133 541 64T484 -54T394 -129T274 -155Q144 -155 48 -59L153 63Q207 9 277 9Q326 9 354 38T385 122Q347
88 277 88Q223 88 178 105T99 154T46 228T27 321ZM293 412Q276 412 261 405T234 385T215 356T208 321Q208 286 233 262T293 237Q328 237 353 261T378 321Q378 339 371 355T353 384T326 404T293 412Z" />
<glyph unicode=":" glyph-name="colon" horiz-adv-x="304" d="M75 335V519H229V335H75ZM75 0V184H229V0H75Z" />
<glyph unicode=";" glyph-name="semicolon" horiz-adv-x="305" d="M76 335V519H230V335H76ZM95 -157L131 0H74V184H231V0L177 -157H95Z" />
<glyph unicode="&lt;" glyph-name="less" horiz-adv-x="521" d="M31 298L455 556V354L307 259L455 172V-40L31 210V298Z" />
<glyph unicode="=" glyph-name="equal" horiz-adv-x="433" d="M55 101V221H378V101H55ZM55 331V451H378V331H55Z" />
<glyph unicode="&gt;" glyph-name="greater" horiz-adv-x="521" d="M490 210L66 -40V172L214 259L66 354V556L490 298V210Z" />
<glyph unicode="?" glyph-name="question" horiz-adv-x="495" d="M95 259Q95 280 97 300T107 339T131 375T174 406Q185 412 205 422T246 446T282 477T297 516Q297 539 279 552T237 566Q219 566 206 559T184 542T168 522T155 504L34 590Q60 651 116 685T244 719Q282
719 321 708T391 673T442 610T462 515Q462 467 445 428T382 358Q360 343 337 332T295 310T263 287T250 259H95ZM98 0V164H253V0H98Z" />
<glyph unicode="@" glyph-name="at" horiz-adv-x="852" d="M425 603Q498 603 567 581T689 512T775 393T807 221Q807 207 806 184T799 135T784 82T755 33T710 -2T645 -16Q617 -16 598 -9T567 9T549 33T541 57Q507 25 463 10T372 -6Q295 -6 256 33T217 138Q217 181
233 210T275 258T334 284T403 292Q441 292 466 286T505 272Q505 292 500 309T483 338T451 356T399 363Q357 363 325 352T272 322L240 419Q278 445 323 456T418 468Q490 468 530 447T589 394T611 325T615 255V188Q615 166 616 144T622 104T636 75T664 64Q688 64
701 83T722 128T732 182T734 225Q734 292 712 348T649 446T550 510T419 533Q347 533 290 510T193 447T132 351T111 229Q111 166 130 111T187 14T279 -52T403 -76Q429 -76 450 -73T489 -64T525 -52T561 -38L581 -106Q538 -126 492 -136T400 -146Q325 -146 259 -120T144
-44T66 74T37 231Q37 323 69 392T154 509T278 579T425 603ZM465 100Q478 107 491 119T504 148V189Q489 195 462 201T405 208Q363 208 345 191T326 139Q326 83 385 83Q399 83 422 86T465 100Z" />
<glyph unicode="A" glyph-name="A" horiz-adv-x="667" d="M245 710H423L669 0H471L428 139H239L197 0H-2L245 710ZM397 269L334 489L268 269H397Z" />
<glyph unicode="B" glyph-name="B" horiz-adv-x="690" d="M665 182Q665 134 645 100T590 43T509 11T410 0H61V710H473Q510 710 540 694T591 653T623 595T635 528Q635 478 610 433T533 364Q594 346 629 302T665 182ZM467 222Q467 248 453 265T417 283H256V164H410Q434
164 450 179T467 222ZM256 544V435H389Q409 435 425 446T442 490Q442 519 428 531T395 544H256Z" />
<glyph unicode="C" glyph-name="C" horiz-adv-x="691" d="M22 361Q22 426 46 489T118 602T232 683T385 714Q488 714 563 672T676 559L527 453Q517 479 501 496T464 523T423 537T381 541Q339 541 309 525T259 482T230 422T220 355Q220 318 231 284T263 224T314
183T383 167Q403 167 424 171T464 186T499 213T524 254L683 159Q667 120 635 89T561 37T472 5T379 -6Q300 -6 235 25T122 109T48 227T22 361Z" />
<glyph unicode="D" glyph-name="D" horiz-adv-x="716" d="M61 0V710H334Q422 710 489 682T601 606T669 494T692 356Q692 275 667 210T594 98T481 26T334 0H61ZM494 356Q494 397 483 431T452 489T401 526T334 540H256V170H334Q372 170 402 184T452 223T483 282T494 356Z" />
<glyph unicode="E" glyph-name="E" horiz-adv-x="597" d="M567 170V0H61V710H558V540H256V440H514V282H256V170H567Z" />
<glyph unicode="F" glyph-name="F" horiz-adv-x="563" d="M61 0V710H548V540H256V422H494V264H256V0H61Z" />
<glyph unicode="G" glyph-name="G" horiz-adv-x="739" d="M543 59Q467 -5 368 -5Q299 -5 236 19T126 91T51 206T23 361Q23 436 51 500T128 612T243 687T387 715Q435 715 479 705T560 674T628 625T677 560L532 449Q511 491 469 516T380 542Q345 542 316 528T266
489T233 430T221 354Q221 312 233 278T266 220T318 182T385 168Q470 168 535 238H412V378H704V0H543V59Z" />
<glyph unicode="H" glyph-name="H" horiz-adv-x="750" d="M689 710V0H494V278H256V0H61V710H256V448H494V710H689Z" />
<glyph unicode="I" glyph-name="I" horiz-adv-x="317" d="M61 0V710H256V0H61Z" />
<glyph unicode="J" glyph-name="J" horiz-adv-x="498" d="M42 192Q45 190 55 185T80 175T114 166T155 162Q186 162 205 172T234 204T247 262T250 349V710H445V349Q445 268 436 202T397 88T310 15T155 -11Q65 -11 1 33L42 192Z" />
<glyph unicode="K" glyph-name="K" horiz-adv-x="690" d="M61 0V710H256V440L472 710H692L434 392L710 0H486L310 261L256 205V0H61Z" />
<glyph unicode="L" glyph-name="L" horiz-adv-x="585" d="M61 0V710H256V170H578V0H61Z" />
<glyph unicode="M" glyph-name="M" horiz-adv-x="854" d="M598 0V374L479 111H375L256 374V0H61V710H274L427 376L581 710H793V0H598Z" />
<glyph unicode="N" glyph-name="N" horiz-adv-x="754" d="M256 349V0H61V710H213L498 349V710H693V0H538L256 349Z" />
<glyph unicode="O" glyph-name="O" horiz-adv-x="765" d="M381 -6Q300 -6 234 25T121 106T48 222T22 356Q22 426 49 491T124 605T239 684T385 714Q466 714 532 683T645 601T717 485T743 352Q743 282 716 218T641 104T527 24T381 -6ZM220 354Q220 318 230 285T260
225T310 183T383 167Q425 167 456 183T506 226T535 287T545 356Q545 392 535 425T505 484T454 525T382 541Q340 541 310 525T259 483T230 423T220 354Z" />
<glyph unicode="P" glyph-name="P" horiz-adv-x="623" d="M61 0V710H367Q419 710 463 689T538 633T588 554T606 464Q606 417 589 373T542 294T468 239T372 218H256V0H61ZM256 388H359Q377 388 392 404T408 464Q408 508 390 524T354 540H256V388Z" />
<glyph unicode="Q" glyph-name="Q" horiz-adv-x="765" d="M547 34Q510 15 469 5T381 -5Q300 -5 234 25T121 106T48 222T22 356Q22 426 49 491T124 606T239 685T385 715Q466 715 532 684T645 601T717 485T743 352Q743 286 720 226T653 117L761 0H579L547 34ZM383
168Q405 168 420 172L303 300H485L524 257Q535 280 540 305T545 356Q545 392 535 425T505 485T454 526T382 542Q340 542 310 526T259 483T230 423T220 354Q220 318 230 285T260 225T310 184T383 168Z" />
<glyph unicode="R" glyph-name="R" horiz-adv-x="675" d="M61 0V710H387Q439 710 483 689T558 633T608 554T626 464Q626 402 599 349T524 261L674 0H454L329 218H256V0H61ZM256 388H379Q397 388 412 408T428 464Q428 501 410 520T374 540H256V388Z" />
<glyph unicode="S" glyph-name="S" horiz-adv-x="617" d="M491 478Q461 496 429 510Q402 522 369 532T303 543Q277 543 262 535T246 508Q246 494 255 485T281 469T322 454T378 437Q427 422 466 404T534 362T577 302T592 217Q592 153 569 110T507 40T420 3T322
-9Q283 -9 242 -3T161 14T83 40T13 74L97 245Q132 223 170 206Q202 191 242 179T325 167Q357 167 369 175T382 198Q382 213 370 223T335 242T285 258T224 277Q177 293 143 311T87 353T55 407T44 476Q44 535 65 580T124 655T208 700T309 716Q348 716 385 709T456
690T521 665T575 639L491 478Z" />
<glyph unicode="T" glyph-name="T" horiz-adv-x="624" d="M614 540H410V0H215V540H10V710H614V540Z" />
<glyph unicode="U" glyph-name="U" horiz-adv-x="743" d="M371 167Q405 167 429 182T468 221T490 278T497 345V710H692V345Q692 271 673 207T614 95T514 21T371 -6Q286 -6 226 22T126 99T69 210T51 345V710H246V345Q246 310 253 278T275 221T313 182T371 167Z" />
<glyph unicode="V" glyph-name="V" horiz-adv-x="672" d="M198 710L337 245L474 710H679L418 0H256L-8 710H198Z" />
<glyph unicode="W" glyph-name="W" horiz-adv-x="1057" d="M287 710H466L528 491L591 710H770L653 371L704 223L857 710H1069L791 0H629L528 254L428 0H266L-12 710H199L353 223L402 371L287 710Z" />
<glyph unicode="X" glyph-name="X" horiz-adv-x="657" d="M200 710L329 486L458 710H668L431 350L660 0H450L329 214L208 0H-3L226 350L-11 710H200Z" />
<glyph unicode="Y" glyph-name="Y" horiz-adv-x="666" d="M205 710L332 403L462 710H674L429 235V0H235V237L-6 710H205Z" />
<glyph unicode="Z" glyph-name="Z" horiz-adv-x="622" d="M27 145L359 540H42V710H584V565L272 170H590V0H27V145Z" />
<glyph unicode="[" glyph-name="bracketleft" horiz-adv-x="371" d="M79 -40V740H324V590H254V110H324V-40H79Z" />
<glyph unicode="\" glyph-name="backslash" horiz-adv-x="694" d="M235 710L670 0H461L25 710H235Z" />
<glyph unicode="]" glyph-name="bracketright" horiz-adv-x="371" d="M47 -40V110H117V590H47V740H292V-40H47Z" />
<glyph unicode="^" glyph-name="asciicircum" horiz-adv-x="625" d="M36 303L234 710H392L589 303H436L313 556L187 303H36Z" />
<glyph unicode="_" glyph-name="underscore" horiz-adv-x="441" d="M44 -170V0H397V-170H44Z" />
<glyph unicode="`" glyph-name="grave" horiz-adv-x="284" d="M45 730H214L264 588L144 556L45 730Z" />
<glyph unicode="a" glyph-name="a" horiz-adv-x="599" d="M203 -10Q164 -10 130 3T72 38T33 92T19 159Q19 199 36 232T83 289T154 326T246 339Q310 339 352 319V335Q352 372 331 390T261 408Q216 408 178 394T98 351L43 469Q147 536 280 536Q406 536 474 480T542
312V210Q542 183 550 173T578 160V0Q555 -5 535 -7T498 -10Q447 -10 421 8T386 63L382 82Q347 37 301 14T203 -10ZM260 126Q277 126 295 131T327 146Q338 154 345 163T352 183V222Q335 228 315 232T279 236Q244 236 221 219T198 176Q198 154 215 140T260 126Z"
/>
<glyph unicode="b" glyph-name="b" horiz-adv-x="647" d="M383 -10Q264 -10 213 82V0H48V730H238V448Q261 491 303 513T402 536Q450 536 491 515T563 458T610 371T627 261Q627 202 609 153T558 67T480 11T383 -10ZM328 150Q375 150 403 180T432 260Q432 284 425
305T405 342T375 367T336 376Q306 376 279 355T238 298V204Q275 150 328 150Z" />
<glyph unicode="c" glyph-name="c" horiz-adv-x="577" d="M19 263Q19 317 38 366T93 453T184 513T308 536Q404 536 468 496T565 393L380 337Q353 376 307 376Q268 376 241 347T214 263Q214 209 241 180T307 150Q353 150 380 189L565 133Q533 70 469 30T308 -10Q238
-10 184 12T94 72T38 159T19 263Z" />
<glyph unicode="d" glyph-name="d" horiz-adv-x="665" d="M268 -10Q214 -10 169 10T90 66T39 153T20 264Q20 322 37 372T84 458T157 515T250 536Q301 536 343 513T409 448V730H599V210Q599 183 607 173T635 160V0Q586 -10 555 -10Q458 -10 443 63L439 82Q412 34
366 12T268 -10ZM320 150Q372 150 410 204V298Q396 333 369 354T312 376Q291 376 274 367T244 342T224 305T216 260Q216 210 244 180T320 150Z" />
<glyph unicode="e" glyph-name="e" horiz-adv-x="609" d="M307 -10Q238 -10 184 11T94 70T38 155T19 256Q19 313 37 364T92 453T182 513T307 536Q377 536 431 514T521 454T576 367T595 263Q595 248 594 233T590 205H221Q224 163 252 145T313 126Q344 126 371 140T408
179L569 133Q537 70 471 30T307 -10ZM391 319Q386 357 363 379T304 401Q268 401 245 379T217 319H391Z" />
<glyph unicode="f" glyph-name="f" horiz-adv-x="402" d="M85 0V322H20V465H85V522Q85 571 99 611T138 680T198 724T278 740Q344 740 424 710L392 566Q375 572 356 576T321 580Q275 580 275 529V465H390V322H275V0H85Z" />
<glyph unicode="g" glyph-name="g" horiz-adv-x="647" d="M250 0Q199 0 157 20T84 76T38 160T21 264Q21 323 39 373T89 459T167 515T266 536Q323 536 366 514T434 448V526H599V48Q599 -14 576 -64T511 -149T410 -203T279 -223Q195 -223 133 -197T23 -122L123 -18Q152
-45 192 -63T279 -82Q305 -82 328 -75T370 -53T398 -12T409 48V82Q386 40 344 20T250 0ZM318 150Q347 150 368 163T409 204V298Q395 334 368 355T310 376Q290 376 273 367T242 342T222 305T215 259Q215 210 244 180T318 150Z" />
<glyph unicode="h" glyph-name="h" horiz-adv-x="621" d="M577 0H387V296Q387 335 370 352T326 370Q317 370 305 365T280 350T256 326T238 295V0H48V730H238V448Q266 491 311 513T412 536Q467 536 500 517T550 470T572 408T577 346V0Z" />
<glyph unicode="i" glyph-name="i" horiz-adv-x="286" d="M48 0V526H238V0H48ZM48 570V730H238V570H48Z" />
<glyph unicode="j" glyph-name="j" horiz-adv-x="290" d="M36 -209Q-6 -209 -44 -195T-113 -155L-35 -26Q-17 -46 12 -46Q52 -46 52 -3V526H242V12Q242 -37 227 -77T185 -147T119 -193T36 -209ZM52 570V730H242V570H52Z" />
<glyph unicode="k" glyph-name="k" horiz-adv-x="582" d="M395 0L276 192L238 150V0H48V730H238V331L378 526H578L397 296L596 0H395Z" />
<glyph unicode="l" glyph-name="l" horiz-adv-x="355" d="M44 730H234V209Q234 149 283 149Q295 149 309 153T335 164L359 24Q325 8 283 -1T202 -10Q126 -10 85 29T44 142V730Z" />
<glyph unicode="m" glyph-name="m" horiz-adv-x="940" d="M896 0H706V296Q706 335 691 352T653 370Q630 370 605 349T567 295V0H377V296Q377 335 362 352T324 370Q301 370 276 349T238 295V0H48V526H219V448Q247 491 296 513T412 536Q444 536 468 529T509 508T537
479T554 445Q582 488 630 512T741 536Q793 536 823 517T870 468T891 406T896 346V0Z" />
<glyph unicode="n" glyph-name="n" horiz-adv-x="621" d="M577 0H387V296Q387 335 370 352T329 370Q305 370 278 349T238 295V0H48V526H219V448Q247 491 297 513T417 536Q471 536 502 517T550 468T572 406T577 346V0Z" />
<glyph unicode="o" glyph-name="o" horiz-adv-x="614" d="M307 -10Q236 -10 183 12T93 72T38 159T19 263Q19 317 37 366T92 453T182 513T307 536Q377 536 431 514T521 454T576 367T595 263Q595 209 577 160T522 73T431 13T307 -10ZM214 263Q214 210 240 180T307
150Q348 150 374 180T400 263Q400 316 374 346T307 376Q266 376 240 346T214 263Z" />
<glyph unicode="p" glyph-name="p" horiz-adv-x="647" d="M402 -10Q345 -10 303 12T238 78V-213H48V526H213V447Q241 490 282 513T383 536Q435 536 480 516T557 459T607 373T626 265Q626 206 609 156T562 68T491 11T402 -10ZM336 150Q357 150 374 159T404 184T424
221T432 266Q432 316 404 346T328 376Q275 376 238 322V231Q252 196 279 173T336 150Z" />
<glyph unicode="q" glyph-name="q" horiz-adv-x="647" d="M245 -10Q197 -10 156 10T85 68T38 155T21 265Q21 323 39 373T90 459T166 515T264 536Q324 536 365 512T434 445V526H599V7Q599 -20 609 -30T645 -43V-203Q620 -208 591 -210T540 -213Q513 -213 490 -205T448
-181T420 -145T409 -96V78Q386 35 344 13T245 -10ZM319 150Q371 150 409 204V298Q395 333 368 354T311 376Q290 376 273 367T243 342T223 305T215 260Q215 210 243 180T319 150Z" />
<glyph unicode="r" glyph-name="r" horiz-adv-x="416" d="M405 364Q350 364 305 352T238 312V0H48V526H222V426Q250 479 291 507T381 536Q400 536 405 535V364Z" />
<glyph unicode="s" glyph-name="s" horiz-adv-x="501" d="M265 -10Q196 -10 130 12T18 78L83 192Q132 159 177 141T261 123Q301 123 301 148Q301 162 286 172T225 195Q169 211 132 226T71 260T37 300T27 352Q27 392 43 426T87 485T155 523T242 537Q300 537 352
522T458 461L386 347Q337 379 304 392T242 406Q225 406 214 400T203 379Q203 364 219 355T282 333Q339 318 378 302T440 266T474 222T484 165Q484 124 469 92T426 37T357 2T265 -10Z" />
<glyph unicode="t" glyph-name="t" horiz-adv-x="423" d="M417 29Q377 12 332 1T242 -11Q210 -11 181 -3T131 23T97 70T84 142V383H19V526H84V691H274V526H377V383H274V209Q274 183 285 173T315 162Q329 162 347 166T383 179L417 29Z" />
<glyph unicode="u" glyph-name="u" horiz-adv-x="638" d="M207 -10Q127 -10 85 38T43 180V526H233V223Q233 188 248 169T291 150Q313 150 336 160T382 204V526H572V210Q572 183 580 173T608 160V0Q559 -10 528 -10Q431 -10 416 63L412 82Q375 33 324 12T207 -10Z" />
<glyph unicode="v" glyph-name="v" horiz-adv-x="563" d="M178 0L1 526H196L290 149L385 526H562L385 0H178Z" />
<glyph unicode="w" glyph-name="w" horiz-adv-x="862" d="M693 526H872L657 0H502L431 200L360 0H205L-10 526H169L296 173L329 286L235 526H386L431 372L476 526H627L533 286L566 173L693 526Z" />
<glyph unicode="x" glyph-name="x" horiz-adv-x="554" d="M192 526L267 397L277 376L287 397L362 526H555L379 263L560 0H367L286 129L277 149L268 129L187 0H-6L175 263L-1 526H192Z" />
<glyph unicode="y" glyph-name="y" horiz-adv-x="555" d="M44 -53Q90 -70 122 -70Q183 -70 189 0L-2 526H193L293 161L374 526H551L373 -63Q361 -102 339 -133T287 -187T219 -222T142 -234Q91 -234 44 -215V-53Z" />
<glyph unicode="z" glyph-name="z" horiz-adv-x="494" d="M22 112L262 396H37V526H460V414L221 130H469V0H22V112Z" />
<glyph unicode="{" glyph-name="braceleft" horiz-adv-x="374" d="M265 590V436Q265 408 253 391T224 360Q239 346 252 329T265 284V119H320V-31H118Q112 -31 104 -26T95 -1V219Q95 251 76 271T35 296V426Q45 426 56 432T75 449T89 473T95 501V710Q95 728 103
734T118 740H320V590H265Z" />
<glyph unicode="|" glyph-name="bar" horiz-adv-x="312" d="M76 -130V775H236V-130H76Z" />
<glyph unicode="}" glyph-name="braceright" horiz-adv-x="374" d="M54 590V740H256Q262 740 270 734T279 710V501Q279 487 284 474T298 450T317 433T339 426V296Q318 291 299 271T279 219V-1Q279 -20 271 -25T256 -31H54V119H109V284Q109 311 122 328T150 360Q134
374 122 391T109 436V590H54Z" />
<glyph unicode="~" glyph-name="asciitilde" horiz-adv-x="610" d="M45 216Q45 228 53 254T80 307T131 354T211 374Q241 374 265 366T312 349T355 331T400 323Q422 323 436 330T457 347T466 364T469 374H569Q569 366 561 341T533 287T481 238T399 216Q370 216
346 223T300 240T256 256T210 264Q187 264 174 257T155 241T148 225T146 216H45V216Z" />
<glyph unicode="&#xa0;" glyph-name="uni00A0" horiz-adv-x="225" />
<glyph unicode="&#xa1;" glyph-name="exclamdown" horiz-adv-x="360" d="M275 410V-7H85V410H275ZM275 710V526H85V710H275Z" />
<glyph unicode="&#xa2;" glyph-name="cent" horiz-adv-x="618" d="M276 -120V-9Q223 -5 179 19T104 81T54 164T36 258Q36 309 51 354T96 435T171 497T276 534V645H356V534Q422 532 484 498T583 393L398 337Q391 349 379 358T356 370V155Q372 162 382 170T398 189L583
133Q566 97 538 70T477 26T413 -1T356 -10V-120H276ZM232 258Q232 230 242 206T276 164V361Q256 350 244 323T232 258Z" />
<glyph unicode="&#xa3;" glyph-name="sterling" horiz-adv-x="586" d="M61 388H116Q102 423 88 458T74 531Q74 570 91 603T140 661T212 700T301 715Q367 715 427 688T531 610L435 493Q422 508 406 520T371 542T335 556T300 562Q273 562 258 548T242 510Q242 484
256 454T285 388H474V248H296Q289 221 274 197T234 146Q258 154 276 157T312 161Q344 161 377 154T442 146Q459 146 473 149T505 159L551 19Q528 4 495 -5T432 -15Q409 -15 384 -10T334 1T282 13T231 18Q202 18 164 11T87 -9L49 125Q80 143 103 176T135 248H61V388Z"
/>
<glyph unicode="&#xa4;" glyph-name="currency" horiz-adv-x="569" d="M183 507Q205 518 230 523T286 529Q315 529 340 524T386 509L454 578L525 507L462 444Q476 421 484 394T492 338Q492 279 461 231L525 167L459 101L388 168Q346 147 286 147Q227 147 181 169L109
101L43 167L109 233Q80 280 80 338Q80 366 87 392T108 441L43 507L114 578L183 507ZM213 338Q213 301 233 280T286 259Q318 259 338 280T359 338Q359 375 339 396T286 417Q254 417 234 396T213 338Z" />
<glyph unicode="&#xa5;" glyph-name="yen" horiz-adv-x="742" d="M566 432H630V312H504L465 235V202H631V82H465V0H271V82H106V202H271V237L233 312H107V432H172L30 710H241L368 403L498 710H710L566 432Z" />
<glyph unicode="&#xa6;" glyph-name="brokenbar" horiz-adv-x="316" d="M238 254V-130H78V254H238ZM238 775V391H78V775H238Z" />
<glyph unicode="&#xa7;" glyph-name="section" horiz-adv-x="551" d="M488 232Q497 218 505 194T513 132Q513 70 489 28T429 -40T351 -77T273 -88Q230 -88 193 -75T125 -44T74 -6T43 27L164 143Q190 114 215 103T264 92Q286 92 300 100T315 125Q315 142 302 145T275
150Q219 154 179 170T111 212T71 270T58 341Q58 371 63 385T70 406Q62 417 50 444T38 510Q38 549 54 585T100 651T171 697T263 715Q311 715 349 699T415 660T464 612T498 568L353 500Q342 518 324 532T275 547Q249 547 240 537T230 513Q230 493 243 489T273 484Q311
482 351 473T425 444T479 390T501 306Q501 277 496 258T488 232ZM242 314Q242 300 250 294T269 284T292 281T312 277Q317 281 319 287T321 300Q321 319 307 326T281 333Q276 333 271 333T261 335Q256 336 251 337Q242 330 242 314Z" />
<glyph unicode="&#xa8;" glyph-name="dieresis" horiz-adv-x="566" d="M90 580V720H246V580H90ZM320 580V720H476V580H320Z" />
<glyph unicode="&#xa9;" glyph-name="copyright" horiz-adv-x="847" d="M419 -7Q337 -7 267 20T146 96T67 211T38 355Q38 432 66 498T146 612T267 687T419 715Q503 715 575 688T699 612T780 498T810 355Q810 277 781 211T699 97T575 21T419 -7ZM419 57Q486 57
545 79T647 140T715 234T740 355Q740 416 716 470T649 564T547 628T419 651Q353 651 296 628T197 565T132 470T108 355Q108 293 131 239T196 144T295 80T419 57ZM429 111Q364 111 314 131T229 184T178 262T160 354Q160 402 177 446T229 523T313 577T429 597Q521
597 583 557T676 454L491 398Q468 437 428 437Q398 437 377 416T355 354Q355 314 376 293T428 271Q468 271 491 310L676 254Q645 191 583 151T429 111Z" />
<glyph unicode="&#xaa;" glyph-name="ordfeminine" horiz-adv-x="451" d="M155 333Q129 333 107 342T68 366T42 403T33 451Q33 479 44 502T75 541T122 567T183 577Q225 577 251 563V574Q251 600 238 613T193 626Q164 626 139 616T86 586L48 668Q117 715 206 715Q291
715 336 676T381 558V487Q381 468 388 461T412 452V340Q395 336 379 335T351 333Q316 333 298 345T275 384L272 398Q225 333 155 333ZM194 428Q204 428 215 432T235 442Q251 453 251 468V495Q241 500 229 502T206 505Q184 505 170 493T155 463Q155 448 166 438T194
428Z" />
<glyph unicode="&#xab;" glyph-name="guillemotleft" horiz-adv-x="713" d="M30 298L307 496V344L179 259L307 182V30L30 210V298ZM381 298L658 496V344L530 259L658 182V30L381 210V298Z" />
<glyph unicode="&#xac;" glyph-name="logicalnot" horiz-adv-x="637" d="M578 431V89H418V261H49V431H578Z" />
<glyph unicode="&#xad;" glyph-name="uni00AD" horiz-adv-x="629" d="M50 191V361H579V191H50Z" />
<glyph unicode="&#xae;" glyph-name="registered" horiz-adv-x="847" d="M421 -7Q338 -7 268 20T146 96T67 211T38 355Q38 432 66 498T146 612T267 687T421 715Q504 715 575 688T699 612T780 498T810 355Q810 277 781 211T699 97T576 21T421 -7ZM422 56Q488 56
545 78T645 140T712 234T736 352Q736 415 713 469T647 564T548 628T422 651Q354 651 297 628T199 565T135 470T112 354Q112 292 135 238T199 144T297 80T422 56ZM251 572H450Q481 572 508 559T554 525T584 476T595 422Q595 387 578 354T533 301L629 144H482L401
275H383V144H251V572ZM436 387Q447 387 456 394T465 422Q465 445 455 451T434 457H383V387H436Z" />
<glyph unicode="&#xaf;" glyph-name="overscore" horiz-adv-x="438" d="M64 607V720H374V607H64Z" />
<glyph unicode="&#xb0;" glyph-name="degree" horiz-adv-x="300" d="M31 610Q31 659 64 691T150 724Q203 724 236 692T269 610Q269 553 236 520T150 486Q97 486 64 520T31 610ZM127 627Q118 618 118 605Q118 592 127 583Q137 573 150 573Q164 573 172 583Q177
587 179 593T181 605Q181 619 172 627Q168 632 162 634T150 636Q136 636 127 627Z" />
<glyph unicode="&#xb1;" glyph-name="plusminus" horiz-adv-x="480" d="M49 1V151H429V1H49ZM430 462V312H325V197H155V312H50V462H155V577H325V462H430Z" />
<glyph unicode="&#xb2;" glyph-name="twosuperior" horiz-adv-x="441" d="M26 376Q26 419 32 450T53 506T94 550T160 586Q184 596 207 605T248 625T277 648T288 677Q288 700 269 707T216 715Q178 715 147 702T96 671L28 751Q50 780 103 800T232 821Q319 821 365
785T412 676Q412 642 400 618T369 577T328 550T287 535Q251 525 229 514T207 483H394V376H26Z" />
<glyph unicode="&#xb3;" glyph-name="threesuperior" horiz-adv-x="422" d="M194 369Q131 369 87 386T23 440L80 524Q86 518 95 510T118 496T150 484T192 479Q228 479 255 486T282 514Q282 537 243 546T134 555H109V654H133Q191 654 229 662T267 694Q267 702 260
707T243 715T221 719T200 720Q161 720 136 708T90 676L21 765Q34 779 54 789T97 807T147 817T199 821Q238 821 272 812T330 787T369 748T383 701Q383 665 357 642T285 611Q336 604 364 572T393 497Q393 462 376 438T330 398T267 376T194 369Z" />
<glyph unicode="&#xb4;" glyph-name="acute" horiz-adv-x="284" d="M165 556L45 588L95 730H264L165 556Z" />
<glyph unicode="&#xb5;" glyph-name="mu" horiz-adv-x="708" d="M75 526H265V223Q265 188 280 169T327 150Q345 150 368 160T414 204V526H604V210Q604 183 614 173T650 160V0Q621 -5 599 -7T560 -10Q463 -10 448 63L444 82Q438 67 424 51T390 21T350 -2T310 -11Q293
-11 278 -3T253 26V-213H75V526Z" />
<glyph unicode="&#xb6;" glyph-name="paragraph" horiz-adv-x="705" d="M34 445Q34 573 107 641T316 710H657V570H587V-80H427V188H396V-80H236V188Q191 188 154 207T90 259T49 340T34 445ZM191 450Q191 400 203 366T236 328V570Q216 566 204 533T191 450ZM427
570H396V328H427V570Z" />
<glyph unicode="&#xb7;" glyph-name="middot" horiz-adv-x="254" d="M50 238V422H204V238H50Z" />
<glyph unicode="&#xb8;" glyph-name="cedilla" horiz-adv-x="362" d="M55 -128Q66 -135 92 -141T145 -148Q168 -148 184 -141T201 -117Q201 -100 186 -94T146 -87Q125 -87 102 -90T67 -96L131 36L200 17L164 -34Q170 -33 176 -33T191 -32Q209 -32 226 -36T256
-50T277 -74T285 -110Q285 -152 249 -182T133 -213Q97 -213 69 -207T20 -192L55 -128Z" />
<glyph unicode="&#xb9;" glyph-name="onesuperior" horiz-adv-x="321" d="M300 485V378H47V485H123V706Q118 699 107 690T83 673T56 659T30 653V762Q45 762 61 771T91 791T114 811T123 821H233V485H300Z" />
<glyph unicode="&#xba;" glyph-name="ordmasculine" horiz-adv-x="438" d="M219 333Q172 333 137 348T77 390T41 451T28 524Q28 562 40 596T77 657T136 699T219 715Q266 715 302 700T362 658T398 597T410 524Q410 486 398 452T362 391T302 349T219 333ZM161 524Q161
487 177 466T219 445Q245 445 261 466T277 524Q277 561 261 582T219 603Q193 603 177 582T161 524Z" />
<glyph unicode="&#xbb;" glyph-name="guillemotright" horiz-adv-x="713" d="M683 210L406 30V182L534 259L406 344V496L683 298V210ZM332 210L55 30V182L183 259L55 344V496L332 298V210Z" />
<glyph unicode="&#xbc;" glyph-name="onequarter" horiz-adv-x="1020" d="M214 65L497 384L748 721L831 646L560 337L297 -10L214 65ZM310 395V288H57V395H133V616Q128 609 117 600T93 583T66 569T40 563V672Q55 672 71 681T101 701T124 721T133 731H243V395H310ZM814
1V84H599V191L848 441H922V191H986V84H922V1H814ZM700 191H818V312L700 191Z" />
<glyph unicode="&#xbd;" glyph-name="onehalf" horiz-adv-x="1033" d="M171 65L454 384L705 721L788 646L517 337L254 -10L171 65ZM307 395V288H54V395H130V616Q125 609 114 600T90 583T63 569T37 563V672Q52 672 68 681T98 701T121 721T130 731H240V395H307ZM609
0Q609 43 615 74T636 130T677 174T744 210Q768 220 790 229T831 249T860 272T871 301Q871 324 852 331T799 339Q761 339 730 326T679 295L611 375Q633 404 686 424T816 445Q902 445 948 409T995 300Q995 266 983 242T952 201T911 174T870 159Q834 149 812 138T790
107H996V0H609Z" />
<glyph unicode="&#xbe;" glyph-name="threequarters" horiz-adv-x="1027" d="M243 65L526 384L777 721L860 646L589 337L326 -10L243 65ZM821 1V84H606V191L855 441H929V191H993V84H929V1H821ZM707 191H825V312L707 191ZM208 279Q145 279 101 296T37 350L94 434Q114
416 139 403T206 389Q242 389 269 396T296 424Q296 447 257 456T148 465H123V564H147Q205 564 243 572T281 604Q281 612 274 617T257 625T235 629T214 630Q175 630 150 618T104 586L35 675Q48 689 68 699T111 717T161 727T213 731Q252 731 286 722T344 697T383
658T397 611Q397 575 371 552T299 521Q350 514 378 482T407 407Q407 372 390 348T344 308T281 286T208 279Z" />
<glyph unicode="&#xbf;" glyph-name="questiondown" horiz-adv-x="487" d="M395 247Q395 226 393 206T383 167T359 131T316 100Q305 94 284 84T243 60T208 29T193 -10Q193 -33 211 -46T253 -60Q271 -60 284 -53T306 -36T322 -16T335 2L456 -84Q430 -145 374 -179T246
-213Q208 -213 169 -202T99 -167T48 -104T28 -9Q28 39 45 78T108 148Q130 163 153 174T195 196T227 218T240 247H395ZM392 506V342H237V506H392Z" />
<glyph unicode="&#xc0;" glyph-name="Agrave" horiz-adv-x="667" d="M245 710H423L669 0H471L428 139H239L197 0H-2L245 710ZM397 269L334 489L268 269H397ZM177 915H346L396 773L276 741L177 915Z" />
<glyph unicode="&#xc1;" glyph-name="Aacute" horiz-adv-x="667" d="M245 710H423L669 0H471L428 139H239L197 0H-2L245 710ZM397 269L334 489L268 269H397ZM392 740L272 772L322 914H491L392 740Z" />
<glyph unicode="&#xc2;" glyph-name="Acircumflex" horiz-adv-x="667" d="M245 710H423L669 0H471L428 139H239L197 0H-2L245 710ZM397 269L334 489L268 269H397ZM153 799L266 914H402L515 799L419 757L334 820L249 757L153 799Z" />
<glyph unicode="&#xc3;" glyph-name="Atilde" horiz-adv-x="667" d="M245 710H423L669 0H471L428 139H239L197 0H-2L245 710ZM397 269L334 489L268 269H397ZM398 756Q375 756 358 763T325 780T296 796T264 804Q247 804 238 797T225 781T219 765T218 756H117Q117
769 124 795T149 848T192 894T256 914Q280 914 298 906T331 889T360 871T391 863Q407 863 417 870T432 887T439 905T441 914H541Q541 905 533 880T508 827T464 778T398 756Z" />
<glyph unicode="&#xc4;" glyph-name="Adieresis" horiz-adv-x="667" d="M245 710H423L669 0H471L428 139H239L197 0H-2L245 710ZM397 269L334 489L268 269H397ZM141 765V905H297V765H141ZM371 765V905H527V765H371Z" />
<glyph unicode="&#xc5;" glyph-name="Aring" horiz-adv-x="667" d="M245 710H423L669 0H471L428 139H239L197 0H-2L245 710ZM397 269L334 489L268 269H397ZM217 827Q217 871 248 892T334 914Q388 914 419 893T451 827Q451 783 420 762T334 740Q280 740 249 761T217
827ZM334 860Q317 860 306 851T294 828Q294 813 305 804T334 794Q351 794 362 803T374 828Q374 842 363 851T334 860Z" />
<glyph unicode="&#xc6;" glyph-name="AE" horiz-adv-x="971" d="M405 710H932V540H650V446H878V276H650V170H941V0H456V139H255L180 0H-26L405 710ZM441 309V495L337 309H441Z" />
<glyph unicode="&#xc7;" glyph-name="Ccedilla" horiz-adv-x="691" d="M277 -128Q288 -135 314 -141T367 -148Q390 -148 406 -141T423 -117Q423 -100 408 -94T368 -87Q347 -87 324 -90T289 -96L334 -3Q264 6 207 40T108 124T45 236T22 361Q22 426 46 489T118 602T232
683T385 714Q488 714 563 672T676 559L527 453Q517 479 501 496T464 523T423 537T381 541Q339 541 309 525T259 482T230 422T220 355Q220 318 231 284T263 224T314 183T383 167Q403 167 424 171T464 186T499 213T524 254L683 159Q668 123 639 94T573 44T492 11T406
-5L386 -34Q392 -33 398 -33T413 -32Q431 -32 448 -36T478 -50T499 -74T507 -110Q507 -152 471 -182T355 -213Q319 -213 291 -207T242 -192L277 -128Z" />
<glyph unicode="&#xc8;" glyph-name="Egrave" horiz-adv-x="597" d="M567 170V0H61V710H558V540H256V440H514V282H256V170H567ZM159 915H328L378 773L258 741L159 915Z" />
<glyph unicode="&#xc9;" glyph-name="Eacute" horiz-adv-x="597" d="M567 170V0H61V710H558V540H256V440H514V282H256V170H567ZM374 740L254 772L304 914H473L374 740Z" />
<glyph unicode="&#xca;" glyph-name="Ecircumflex" horiz-adv-x="597" d="M567 170V0H61V710H558V540H256V440H514V282H256V170H567ZM135 799L248 914H384L497 799L401 757L316 820L231 757L135 799Z" />
<glyph unicode="&#xcb;" glyph-name="Edieresis" horiz-adv-x="597" d="M567 170V0H61V710H558V540H256V440H514V282H256V170H567ZM123 765V905H279V765H123ZM353 765V905H509V765H353Z" />
<glyph unicode="&#xcc;" glyph-name="Igrave" horiz-adv-x="317" d="M61 0V710H256V0H61ZM1 915H170L220 773L100 741L1 915Z" />
<glyph unicode="&#xcd;" glyph-name="Iacute" horiz-adv-x="317" d="M61 0V710H256V0H61ZM216 740L96 772L146 914H315L216 740Z" />
<glyph unicode="&#xce;" glyph-name="Icircumflex" horiz-adv-x="317" d="M61 0V710H256V0H61ZM-23 799L90 914H226L339 799L243 757L158 820L73 757L-23 799Z" />
<glyph unicode="&#xcf;" glyph-name="Idieresis" horiz-adv-x="317" d="M61 0V710H256V0H61ZM-35 765V905H121V765H-35ZM195 765V905H351V765H195Z" />
<glyph unicode="&#xd0;" glyph-name="Eth" horiz-adv-x="720" d="M65 0V287H28V427H65V710H338Q426 710 493 682T605 606T673 494T696 356Q696 275 671 210T598 98T485 26T338 0H65ZM498 356Q498 397 487 431T456 489T405 526T338 540H260V427H374V287H260V170H338Q376
170 406 184T456 223T487 282T498 356Z" />
<glyph unicode="&#xd1;" glyph-name="Ntilde" horiz-adv-x="754" d="M256 349V0H61V710H213L498 349V710H693V0H538L256 349ZM438 755Q415 755 398 762T365 779T336 795T304 803Q287 803 278 796T265 780T259 764T258 755H157Q157 768 164 794T189 847T232 893T296
913Q320 913 338 905T371 888T400 870T431 862Q447 862 457 869T472 886T479 904T481 913H581Q581 904 573 879T548 826T504 777T438 755Z" />
<glyph unicode="&#xd2;" glyph-name="Ograve" horiz-adv-x="765" d="M381 -6Q300 -6 234 25T121 106T48 222T22 356Q22 426 49 491T124 605T239 684T385 714Q466 714 532 683T645 601T717 485T743 352Q743 282 716 218T641 104T527 24T381 -6ZM220 354Q220 318
230 285T260 225T310 183T383 167Q425 167 456 183T506 226T535 287T545 356Q545 392 535 425T505 484T454 525T382 541Q340 541 310 525T259 483T230 423T220 354ZM233 915H402L452 773L332 741L233 915Z" />
<glyph unicode="&#xd3;" glyph-name="Oacute" horiz-adv-x="765" d="M381 -6Q300 -6 234 25T121 106T48 222T22 356Q22 426 49 491T124 605T239 684T385 714Q466 714 532 683T645 601T717 485T743 352Q743 282 716 218T641 104T527 24T381 -6ZM220 354Q220 318
230 285T260 225T310 183T383 167Q425 167 456 183T506 226T535 287T545 356Q545 392 535 425T505 484T454 525T382 541Q340 541 310 525T259 483T230 423T220 354ZM451 740L331 772L381 914H550L451 740Z" />
<glyph unicode="&#xd4;" glyph-name="Ocircumflex" horiz-adv-x="765" d="M381 -6Q300 -6 234 25T121 106T48 222T22 356Q22 426 49 491T124 605T239 684T385 714Q466 714 532 683T645 601T717 485T743 352Q743 282 716 218T641 104T527 24T381 -6ZM220 354Q220
318 230 285T260 225T310 183T383 167Q425 167 456 183T506 226T535 287T545 356Q545 392 535 425T505 484T454 525T382 541Q340 541 310 525T259 483T230 423T220 354ZM203 799L316 914H452L565 799L469 757L384 820L299 757L203 799Z" />
<glyph unicode="&#xd5;" glyph-name="Otilde" horiz-adv-x="765" d="M381 -6Q300 -6 234 25T121 106T48 222T22 356Q22 426 49 491T124 605T239 684T385 714Q466 714 532 683T645 601T717 485T743 352Q743 282 716 218T641 104T527 24T381 -6ZM220 354Q220 318
230 285T260 225T310 183T383 167Q425 167 456 183T506 226T535 287T545 356Q545 392 535 425T505 484T454 525T382 541Q340 541 310 525T259 483T230 423T220 354ZM452 756Q429 756 412 763T379 780T350 796T318 804Q301 804 292 797T279 781T273 765T272 756H171Q171
769 178 795T203 848T246 894T310 914Q334 914 352 906T385 889T414 871T445 863Q461 863 471 870T486 887T493 905T495 914H595Q595 905 587 880T562 827T518 778T452 756Z" />
<glyph unicode="&#xd6;" glyph-name="Odieresis" horiz-adv-x="765" d="M381 -6Q300 -6 234 25T121 106T48 222T22 356Q22 426 49 491T124 605T239 684T385 714Q466 714 532 683T645 601T717 485T743 352Q743 282 716 218T641 104T527 24T381 -6ZM220 354Q220
318 230 285T260 225T310 183T383 167Q425 167 456 183T506 226T535 287T545 356Q545 392 535 425T505 484T454 525T382 541Q340 541 310 525T259 483T230 423T220 354ZM191 765V905H347V765H191ZM421 765V905H577V765H421Z" />
<glyph unicode="&#xd7;" glyph-name="multiply" horiz-adv-x="492" d="M451 191L332 73L245 160L158 73L41 191L127 277L47 358L166 476L246 396L326 476L443 358L363 278L451 191Z" />
<glyph unicode="&#xd8;" glyph-name="Oslash" horiz-adv-x="763" d="M745 710L655 587Q697 537 719 476T742 352Q742 282 715 218T640 104T526 24T380 -6Q306 -6 243 20L229 0H20L107 120Q65 170 43 230T21 356Q21 426 48 491T123 605T238 684T384 714Q421 714
454 707T519 688L535 710H745ZM219 354Q219 318 228 287L411 538Q396 541 381 541Q339 541 309 525T258 483T229 423T219 354ZM544 356Q544 391 535 421L352 169Q359 168 366 168T382 167Q424 167 455 183T505 226T534 287T544 356Z" />
<glyph unicode="&#xd9;" glyph-name="Ugrave" horiz-adv-x="743" d="M371 167Q405 167 429 182T468 221T490 278T497 345V710H692V345Q692 271 673 207T614 95T514 21T371 -6Q286 -6 226 22T126 99T69 210T51 345V710H246V345Q246 310 253 278T275 221T313 182T371
167ZM214 915H383L433 773L313 741L214 915Z" />
<glyph unicode="&#xda;" glyph-name="Uacute" horiz-adv-x="743" d="M371 167Q405 167 429 182T468 221T490 278T497 345V710H692V345Q692 271 673 207T614 95T514 21T371 -6Q286 -6 226 22T126 99T69 210T51 345V710H246V345Q246 310 253 278T275 221T313 182T371
167ZM429 740L309 772L359 914H528L429 740Z" />
<glyph unicode="&#xdb;" glyph-name="Ucircumflex" horiz-adv-x="743" d="M371 167Q405 167 429 182T468 221T490 278T497 345V710H692V345Q692 271 673 207T614 95T514 21T371 -6Q286 -6 226 22T126 99T69 210T51 345V710H246V345Q246 310 253 278T275 221T313
182T371 167ZM190 799L303 914H439L552 799L456 757L371 820L286 757L190 799Z" />
<glyph unicode="&#xdc;" glyph-name="Udieresis" horiz-adv-x="743" d="M371 167Q405 167 429 182T468 221T490 278T497 345V710H692V345Q692 271 673 207T614 95T514 21T371 -6Q286 -6 226 22T126 99T69 210T51 345V710H246V345Q246 310 253 278T275 221T313
182T371 167ZM178 765V905H334V765H178ZM408 765V905H564V765H408Z" />
<glyph unicode="&#xdd;" glyph-name="Yacute" horiz-adv-x="666" d="M205 710L332 403L462 710H674L429 235V0H235V237L-6 710H205ZM390 740L270 772L320 914H489L390 740Z" />
<glyph unicode="&#xde;" glyph-name="Thorn" horiz-adv-x="605" d="M352 592Q404 592 448 571T523 515T573 436T591 347Q591 299 574 255T527 177T453 122T357 101H256V0H61V710H256V592H352ZM347 271Q366 271 381 291T396 347Q396 384 379 403T342 422H256V271H347Z" />
<glyph unicode="&#xdf;" glyph-name="germandbls" horiz-adv-x="563" d="M254 168Q291 168 317 185T344 237Q344 255 337 267T318 288T296 299T275 303H252V473H273Q294 473 303 484T312 512Q312 528 306 536T291 549T277 553T269 554Q254 554 246 547T233 529T229
509T228 494V0H48V529Q48 569 66 602T117 661T193 700T288 714Q332 714 369 703T434 671T476 618T492 546Q492 521 486 498T471 457T448 424T421 403Q478 381 511 333T544 213Q544 148 518 106T450 39T357 4T254 -6V168Z" />
<glyph unicode="&#xe0;" glyph-name="agrave" horiz-adv-x="599" d="M203 -10Q164 -10 130 3T72 38T33 92T19 159Q19 199 36 232T83 289T154 326T246 339Q310 339 352 319V335Q352 372 331 390T261 408Q216 408 178 394T98 351L43 469Q147 536 280 536Q406 536
474 480T542 312V210Q542 183 550 173T578 160V0Q555 -5 535 -7T498 -10Q447 -10 421 8T386 63L382 82Q347 37 301 14T203 -10ZM260 126Q277 126 295 131T327 146Q338 154 345 163T352 183V222Q335 228 315 232T279 236Q244 236 221 219T198 176Q198 154 215 140T260
126ZM123 731H292L342 589L222 557L123 731Z" />
<glyph unicode="&#xe1;" glyph-name="aacute" horiz-adv-x="599" d="M203 -10Q164 -10 130 3T72 38T33 92T19 159Q19 199 36 232T83 289T154 326T246 339Q310 339 352 319V335Q352 372 331 390T261 408Q216 408 178 394T98 351L43 469Q147 536 280 536Q406 536
474 480T542 312V210Q542 183 550 173T578 160V0Q555 -5 535 -7T498 -10Q447 -10 421 8T386 63L382 82Q347 37 301 14T203 -10ZM260 126Q277 126 295 131T327 146Q338 154 345 163T352 183V222Q335 228 315 232T279 236Q244 236 221 219T198 176Q198 154 215 140T260
126ZM338 556L218 588L268 730H437L338 556Z" />
<glyph unicode="&#xe2;" glyph-name="acircumflex" horiz-adv-x="599" d="M203 -10Q164 -10 130 3T72 38T33 92T19 159Q19 199 36 232T83 289T154 326T246 339Q310 339 352 319V335Q352 372 331 390T261 408Q216 408 178 394T98 351L43 469Q147 536 280 536Q406
536 474 480T542 312V210Q542 183 550 173T578 160V0Q555 -5 535 -7T498 -10Q447 -10 421 8T386 63L382 82Q347 37 301 14T203 -10ZM260 126Q277 126 295 131T327 146Q338 154 345 163T352 183V222Q335 228 315 232T279 236Q244 236 221 219T198 176Q198 154 215
140T260 126ZM99 615L212 730H348L461 615L365 573L280 636L195 573L99 615Z" />
<glyph unicode="&#xe3;" glyph-name="atilde" horiz-adv-x="599" d="M203 -10Q164 -10 130 3T72 38T33 92T19 159Q19 199 36 232T83 289T154 326T246 339Q310 339 352 319V335Q352 372 331 390T261 408Q216 408 178 394T98 351L43 469Q147 536 280 536Q406 536
474 480T542 312V210Q542 183 550 173T578 160V0Q555 -5 535 -7T498 -10Q447 -10 421 8T386 63L382 82Q347 37 301 14T203 -10ZM260 126Q277 126 295 131T327 146Q338 154 345 163T352 183V222Q335 228 315 232T279 236Q244 236 221 219T198 176Q198 154 215 140T260
126ZM344 572Q321 572 304 579T271 596T242 612T210 620Q193 620 184 613T171 597T165 581T164 572H63Q63 585 70 611T95 664T138 710T202 730Q226 730 244 722T277 705T306 687T337 679Q353 679 363 686T378 703T385 721T387 730H487Q487 721 479 696T454 643T410
594T344 572Z" />
<glyph unicode="&#xe4;" glyph-name="adieresis" horiz-adv-x="599" d="M203 -10Q164 -10 130 3T72 38T33 92T19 159Q19 199 36 232T83 289T154 326T246 339Q310 339 352 319V335Q352 372 331 390T261 408Q216 408 178 394T98 351L43 469Q147 536 280 536Q406
536 474 480T542 312V210Q542 183 550 173T578 160V0Q555 -5 535 -7T498 -10Q447 -10 421 8T386 63L382 82Q347 37 301 14T203 -10ZM260 126Q277 126 295 131T327 146Q338 154 345 163T352 183V222Q335 228 315 232T279 236Q244 236 221 219T198 176Q198 154 215
140T260 126ZM87 581V721H243V581H87ZM317 581V721H473V581H317Z" />
<glyph unicode="&#xe5;" glyph-name="aring" horiz-adv-x="599" d="M203 -10Q164 -10 130 3T72 38T33 92T19 159Q19 199 36 232T83 289T154 326T246 339Q310 339 352 319V335Q352 372 331 390T261 408Q216 408 178 394T98 351L43 469Q147 536 280 536Q406 536
474 480T542 312V210Q542 183 550 173T578 160V0Q555 -5 535 -7T498 -10Q447 -10 421 8T386 63L382 82Q347 37 301 14T203 -10ZM260 126Q277 126 295 131T327 146Q338 154 345 163T352 183V222Q335 228 315 232T279 236Q244 236 221 219T198 176Q198 154 215 140T260
126ZM163 643Q163 687 194 708T280 730Q334 730 365 709T397 643Q397 599 366 578T280 556Q226 556 195 577T163 643ZM280 676Q263 676 252 667T240 644Q240 629 251 620T280 610Q297 610 308 619T320 644Q320 658 309 667T280 676Z" />
<glyph unicode="&#xe6;" glyph-name="ae" horiz-adv-x="942" d="M203 -10Q164 -10 130 3T72 38T33 92T19 159Q19 199 36 232T83 289T154 326T246 339Q310 339 352 319V335Q351 372 330 390T261 408Q216 408 178 394T98 351L43 469Q147 536 280 536Q397 536 465
486Q499 509 542 522T640 536Q710 536 764 514T854 454T909 367T928 263Q928 248 927 233T923 205H554Q557 163 585 145T646 126Q677 126 704 140T741 179L902 133Q870 70 804 30T640 -10Q560 -10 502 18T407 92Q388 65 363 46T311 14T256 -4T203 -10ZM260 126Q277
126 295 131T327 146Q338 154 345 163T352 183V222Q335 228 315 232T279 236Q244 236 221 219T198 176Q198 154 215 140T260 126ZM724 319Q719 357 696 379T637 401Q601 401 578 379T550 319H724Z" />
<glyph unicode="&#xe7;" glyph-name="ccedilla" horiz-adv-x="577" d="M216 -128Q227 -135 253 -141T306 -148Q329 -148 345 -141T362 -117Q362 -100 347 -94T307 -87Q286 -87 263 -90T228 -96L270 -8Q209 -2 163 22T84 83T36 166T19 263Q19 317 38 366T93 453T184
513T308 536Q404 536 468 496T565 393L380 337Q353 376 307 376Q268 376 241 347T214 263Q214 209 241 180T307 150Q353 150 380 189L565 133Q536 76 480 38T343 -8L325 -34Q331 -33 337 -33T352 -32Q370 -32 387 -36T417 -50T438 -74T446 -110Q446 -152 410 -182T294
-213Q258 -213 230 -207T181 -192L216 -128Z" />
<glyph unicode="&#xe8;" glyph-name="egrave" horiz-adv-x="609" d="M307 -10Q238 -10 184 11T94 70T38 155T19 256Q19 313 37 364T92 453T182 513T307 536Q377 536 431 514T521 454T576 367T595 263Q595 248 594 233T590 205H221Q224 163 252 145T313 126Q344
126 371 140T408 179L569 133Q537 70 471 30T307 -10ZM391 319Q386 357 363 379T304 401Q268 401 245 379T217 319H391ZM150 731H319L369 589L249 557L150 731Z" />
<glyph unicode="&#xe9;" glyph-name="eacute" horiz-adv-x="609" d="M307 -10Q238 -10 184 11T94 70T38 155T19 256Q19 313 37 364T92 453T182 513T307 536Q377 536 431 514T521 454T576 367T595 263Q595 248 594 233T590 205H221Q224 163 252 145T313 126Q344
126 371 140T408 179L569 133Q537 70 471 30T307 -10ZM391 319Q386 357 363 379T304 401Q268 401 245 379T217 319H391ZM365 556L245 588L295 730H464L365 556Z" />
<glyph unicode="&#xea;" glyph-name="ecircumflex" horiz-adv-x="609" d="M307 -10Q238 -10 184 11T94 70T38 155T19 256Q19 313 37 364T92 453T182 513T307 536Q377 536 431 514T521 454T576 367T595 263Q595 248 594 233T590 205H221Q224 163 252 145T313 126Q344
126 371 140T408 179L569 133Q537 70 471 30T307 -10ZM391 319Q386 357 363 379T304 401Q268 401 245 379T217 319H391ZM126 615L239 730H375L488 615L392 573L307 636L222 573L126 615Z" />
<glyph unicode="&#xeb;" glyph-name="edieresis" horiz-adv-x="609" d="M307 -10Q238 -10 184 11T94 70T38 155T19 256Q19 313 37 364T92 453T182 513T307 536Q377 536 431 514T521 454T576 367T595 263Q595 248 594 233T590 205H221Q224 163 252 145T313 126Q344
126 371 140T408 179L569 133Q537 70 471 30T307 -10ZM391 319Q386 357 363 379T304 401Q268 401 245 379T217 319H391ZM114 581V721H270V581H114ZM344 581V721H500V581H344Z" />
<glyph unicode="&#xec;" glyph-name="igrave" horiz-adv-x="286" d="M48 0V526H238V0H48ZM-14 731H155L205 589L85 557L-14 731Z" />
<glyph unicode="&#xed;" glyph-name="iacute" horiz-adv-x="286" d="M48 0V526H238V0H48ZM201 556L81 588L131 730H300L201 556Z" />
<glyph unicode="&#xee;" glyph-name="icircumflex" horiz-adv-x="286" d="M48 0V526H238V0H48ZM-38 615L75 730H211L324 615L228 573L143 636L58 573L-38 615Z" />
<glyph unicode="&#xef;" glyph-name="idieresis" horiz-adv-x="286" d="M48 0V526H238V0H48ZM-50 581V721H106V581H-50ZM180 581V721H336V581H180Z" />
<glyph unicode="&#xf0;" glyph-name="eth" horiz-adv-x="621" d="M551 641L489 609Q540 543 569 461T598 291Q598 220 578 165T521 70T431 11T310 -10Q247 -10 194 8T103 58T43 135T22 234Q22 284 40 327T91 402T166 452T260 471Q300 471 337 459T403 425Q394
458 380 488T344 548L268 510L216 581L283 615Q216 676 108 730H338Q361 719 383 706T427 674L499 712L551 641ZM217 235Q217 197 242 174T310 150Q352 150 377 173T403 235Q403 273 378 296T310 320Q268 320 243 297T217 235Z" />
<glyph unicode="&#xf1;" glyph-name="ntilde" horiz-adv-x="621" d="M577 0H387V296Q387 335 370 352T329 370Q305 370 278 349T238 295V0H48V526H219V448Q247 491 297 513T417 536Q471 536 502 517T550 468T572 406T577 346V0ZM397 572Q374 572 357 579T324 596T295
612T263 620Q246 620 237 613T224 597T218 581T217 572H116Q116 585 123 611T148 664T191 710T255 730Q279 730 297 722T330 705T359 687T390 679Q406 679 416 686T431 703T438 721T440 730H540Q540 721 532 696T507 643T463 594T397 572Z" />
<glyph unicode="&#xf2;" glyph-name="ograve" horiz-adv-x="614" d="M307 -10Q236 -10 183 12T93 72T38 159T19 263Q19 317 37 366T92 453T182 513T307 536Q377 536 431 514T521 454T576 367T595 263Q595 209 577 160T522 73T431 13T307 -10ZM214 263Q214 210
240 180T307 150Q348 150 374 180T400 263Q400 316 374 346T307 376Q266 376 240 346T214 263ZM150 731H319L369 589L249 557L150 731Z" />
<glyph unicode="&#xf3;" glyph-name="oacute" horiz-adv-x="614" d="M307 -10Q236 -10 183 12T93 72T38 159T19 263Q19 317 37 366T92 453T182 513T307 536Q377 536 431 514T521 454T576 367T595 263Q595 209 577 160T522 73T431 13T307 -10ZM214 263Q214 210
240 180T307 150Q348 150 374 180T400 263Q400 316 374 346T307 376Q266 376 240 346T214 263ZM365 556L245 588L295 730H464L365 556Z" />
<glyph unicode="&#xf4;" glyph-name="ocircumflex" horiz-adv-x="614" d="M307 -10Q236 -10 183 12T93 72T38 159T19 263Q19 317 37 366T92 453T182 513T307 536Q377 536 431 514T521 454T576 367T595 263Q595 209 577 160T522 73T431 13T307 -10ZM214 263Q214
210 240 180T307 150Q348 150 374 180T400 263Q400 316 374 346T307 376Q266 376 240 346T214 263ZM126 615L239 730H375L488 615L392 573L307 636L222 573L126 615Z" />
<glyph unicode="&#xf5;" glyph-name="otilde" horiz-adv-x="614" d="M307 -10Q236 -10 183 12T93 72T38 159T19 263Q19 317 37 366T92 453T182 513T307 536Q377 536 431 514T521 454T576 367T595 263Q595 209 577 160T522 73T431 13T307 -10ZM214 263Q214 210
240 180T307 150Q348 150 374 180T400 263Q400 316 374 346T307 376Q266 376 240 346T214 263ZM371 572Q348 572 331 579T298 596T269 612T237 620Q220 620 211 613T198 597T192 581T191 572H90Q90 585 97 611T122 664T165 710T229 730Q253 730 271 722T304 705T333
687T364 679Q380 679 390 686T405 703T412 721T414 730H514Q514 721 506 696T481 643T437 594T371 572Z" />
<glyph unicode="&#xf6;" glyph-name="odieresis" horiz-adv-x="614" d="M307 -10Q236 -10 183 12T93 72T38 159T19 263Q19 317 37 366T92 453T182 513T307 536Q377 536 431 514T521 454T576 367T595 263Q595 209 577 160T522 73T431 13T307 -10ZM214 263Q214 210
240 180T307 150Q348 150 374 180T400 263Q400 316 374 346T307 376Q266 376 240 346T214 263ZM114 581V721H270V581H114ZM344 581V721H500V581H344Z" />
<glyph unicode="&#xf7;" glyph-name="divide" horiz-adv-x="485" d="M164 435V595H323V435H164ZM164 27V187H323V27H164ZM41 235V385H445V235H41Z" />
<glyph unicode="&#xf8;" glyph-name="oslash" horiz-adv-x="614" d="M14 -6L88 77Q53 115 36 162T19 263Q19 317 37 366T92 453T182 513T307 536Q353 536 391 527T461 500L490 532H591L521 454Q558 416 576 367T595 263Q595 209 577 160T522 73T431 13T307 -10Q259
-10 219 0T146 30L114 -6H14ZM307 150Q348 150 374 180T400 263Q400 291 392 313L259 163Q279 150 307 150ZM214 263Q214 251 215 241T219 220L349 366Q327 376 307 376Q266 376 240 346T214 263Z" />
<glyph unicode="&#xf9;" glyph-name="ugrave" horiz-adv-x="638" d="M207 -10Q127 -10 85 38T43 180V526H233V223Q233 188 248 169T291 150Q313 150 336 160T382 204V526H572V210Q572 183 580 173T608 160V0Q559 -10 528 -10Q431 -10 416 63L412 82Q375 33 324
12T207 -10ZM151 731H320L370 589L250 557L151 731Z" />
<glyph unicode="&#xfa;" glyph-name="uacute" horiz-adv-x="638" d="M207 -10Q127 -10 85 38T43 180V526H233V223Q233 188 248 169T291 150Q313 150 336 160T382 204V526H572V210Q572 183 580 173T608 160V0Q559 -10 528 -10Q431 -10 416 63L412 82Q375 33 324
12T207 -10ZM366 556L246 588L296 730H465L366 556Z" />
<glyph unicode="&#xfb;" glyph-name="ucircumflex" horiz-adv-x="638" d="M207 -10Q127 -10 85 38T43 180V526H233V223Q233 188 248 169T291 150Q313 150 336 160T382 204V526H572V210Q572 183 580 173T608 160V0Q559 -10 528 -10Q431 -10 416 63L412 82Q375 33
324 12T207 -10ZM127 615L240 730H376L489 615L393 573L308 636L223 573L127 615Z" />
<glyph unicode="&#xfc;" glyph-name="udieresis" horiz-adv-x="638" d="M207 -10Q127 -10 85 38T43 180V526H233V223Q233 188 248 169T291 150Q313 150 336 160T382 204V526H572V210Q572 183 580 173T608 160V0Q559 -10 528 -10Q431 -10 416 63L412 82Q375 33
324 12T207 -10ZM115 581V721H271V581H115ZM345 581V721H501V581H345Z" />
<glyph unicode="&#xfd;" glyph-name="yacute" horiz-adv-x="555" d="M44 -53Q90 -70 122 -70Q183 -70 189 0L-2 526H193L293 161L374 526H551L373 -63Q361 -102 339 -133T287 -187T219 -222T142 -234Q91 -234 44 -215V-53ZM351 556L231 588L281 730H450L351 556Z" />
<glyph unicode="&#xfe;" glyph-name="thorn" horiz-adv-x="599" d="M581 255Q581 198 559 146T501 55T415 -8T312 -31Q289 -31 270 -26T243 -13V-213H48V710H243V525Q254 534 273 539T319 544Q372 544 419 521T503 459T560 367T581 255ZM386 259Q386 312 365 343T307
374Q287 374 272 364T243 327V179Q243 172 248 165T263 152T283 143T305 139Q341 139 363 172T386 259Z" />
<glyph unicode="&#xff;" glyph-name="ydieresis" horiz-adv-x="555" d="M44 -53Q90 -70 122 -70Q183 -70 189 0L-2 526H193L293 161L374 526H551L373 -63Q361 -102 339 -133T287 -187T219 -222T142 -234Q91 -234 44 -215V-53ZM100 581V721H256V581H100ZM330 581V721H486V581H330Z"
/>
<glyph unicode="&#x2013;" glyph-name="endash" horiz-adv-x="629" d="M50 191V361H579V191H50Z" />
<glyph unicode="&#x2014;" glyph-name="emdash" horiz-adv-x="948" d="M50 191V361H898V191H50Z" />
<glyph unicode="&#x2018;" glyph-name="quoteleft" horiz-adv-x="293" d="M220 730L194 599H246V439H49V604L91 730H220Z" />
<glyph unicode="&#x2019;" glyph-name="quoteright" horiz-adv-x="282" d="M69 453L95 584H43V744H240V579L198 453H69Z" />
<glyph unicode="&#x201a;" glyph-name="quotesinglbase" horiz-adv-x="297" d="M76 -151L102 0H50V184H247V-5L205 -151H76Z" />
<glyph unicode="&#x201c;" glyph-name="quotedblleft" horiz-adv-x="542" d="M220 730L194 599H246V439H49V604L91 730H220ZM469 730L443 599H495V439H298V604L340 730H469Z" />
<glyph unicode="&#x201d;" glyph-name="quotedblright" horiz-adv-x="531" d="M69 453L95 584H43V744H240V579L198 453H69ZM318 453L344 584H292V744H489V579L447 453H318Z" />
<glyph unicode="&#x201e;" glyph-name="quotedblbase" horiz-adv-x="534" d="M76 -151L102 0H50V184H247V-5L205 -151H76ZM313 -151L339 0H287V184H484V-5L442 -151H313Z" />
<glyph unicode="&#x2022;" glyph-name="bullet" horiz-adv-x="371" d="M302 353Q302 329 293 308T268 270T231 245T185 236Q161 236 140 245T103 270T78 307T68 353Q68 377 77 398T102 435T139 460T185 470Q209 470 230 461T268 436T293 399T302 353Z" />
<glyph unicode="&#x2039;" glyph-name="guilsinglleft" horiz-adv-x="362" d="M30 298L307 496V344L179 259L307 182V30L30 210V298Z" />
<glyph unicode="&#x203a;" glyph-name="guilsinglright" horiz-adv-x="362" d="M332 210L55 30V182L183 259L55 344V496L332 298V210Z" />
</font>
</defs>
</svg>
